PLANETA BEZ GRANICA

DOBRO DOŠLI NA PLANETU BEZ GRANICA!!!!!!!
PLANETA BEZ GRANICA

Planeta bez granica i politike za sve dobronamjerne ljude!

DOBRO DOŠLI NA "Planeta bez granica i politike za sve dobronamjerne ljude"! REGISTRIRAJTE SE DA BI MOGLI UČESTVOVATI NA FORUMU,SKIDATI RAZNE SADRŽAJE,MUZIKU,FILMOVE,DRUŽITI SE NA CHATU!!!!!!!!!!!!HVALA NA POSJETI!!!! VAŠ TIM PLANET RADIJA!!!!!!!!!!!!!!!!

PLANET RADIO PLAYER

  • Open Chat
    New Window
  • Listen On Listen2MyRadio App
  • Radio QR Code
  • Gallery


    Latest topics

    » POASO I POSLODAVCI
    ned srp 31, 2016 7:34 pm by Admin

    » Planeta bez granica pocela sa radom!
    uto srp 12, 2016 7:08 am by Admin

    » SILVIA JUNG
    pon srp 11, 2016 5:29 pm by Admin

    » Zdravko Čolić (Diskografija)
    pet oľu 20, 2015 9:35 am by cibalius77

    » SRETAN ROĐENDAN VIKI!!!!!!!!!!!!!!!!!!!!!!!!!!!!12.02.2014
    sri vel 12, 2014 4:53 pm by Admin

    » TRAŽIM DJ-E
    pon stu 12, 2012 7:57 am by thedjw3

    » DOBRODOSLI
    čet oľu 29, 2012 10:33 pm by viki

    » Godišnji horoskop za 2012
    pet sij 13, 2012 1:31 pm by Dj.andjeo

    » 2 fast 2 real 4 hollywood (2005)
    čet sij 12, 2012 5:13 pm by Kozmos

    Sat planet biz

    Top posters

    dexy69 (347)
     
    viki (156)
     
    Ivan202 (100)
     
    elena (70)
     
    Dj.andjeo (50)
     
    Beba (46)
     
    Admin (46)
     
    Marko (10)
     
    marjan (10)
     
    milislav (4)
     

    prosinac 2016

    ponutosričetpetsubned
       1234
    567891011
    12131415161718
    19202122232425
    262728293031 

    Calendar Calendar


    Predators (2010)+Prevod

    Share

    Ivan202

    Broj postova : 100
    Join date : 01.02.2010

    Predators (2010)+Prevod

    Postaj  Ivan202 on čet srp 22, 2010 7:45 am

    [You must be registered and logged in to see this image.]

    Predators 2010 TS READNFO XViD - IMAGiNE
    ********************************************************************************************************************

    Ripper ...........:IMAGiNE IMDB Rating.......:7.6/10
    Video Codec.......:XViD Release Date......:07/09/10
    Audio Codec.......:Layer 3 Theatre Date......:07/10/10
    Audio Bitrate.....:128 Runtime...........:1h 41mn
    Subtitles.........:NIL Language..........:ENGLISH
    Resolution........:720 x 304 IMDb URL..........:http://www.imdb.com/title/tt1424381/


    DETAILS:

    Video
    Format : MPEG-4 Visual
    Format profile : Streaming Video@L1
    Format settings, BVOP : Yes
    Format settings, QPel : No
    Format settings, GMC : No warppoints
    Format settings, Matrix : Default
    Muxing mode : Packed bitstream
    Codec ID : XVID
    Codec ID/Hint : XviD
    Duration : 1h 41mn
    Bit rate : 1 797 Kbps
    Width : 720 pixels
    Height : 304 pixels
    Display aspect ratio : 2.35
    Frame rate : 25.000 fps
    Resolution : 24 bits
    Colorimetry : 4:2:0
    Scan type : Progressive
    Bits/(Pixel*Frame) : 0.328
    Stream size : 1.27 GiB (93%)
    Writing library : XviD 50

    Audio
    Format : MPEG Audio
    Format version : Version 1
    Format profile : Layer 3
    Codec ID : 55
    Codec ID/Hint : MP3
    Duration : 1h 41mn
    Bit rate mode : Constant
    Bit rate : 128 Kbps
    Channel(s) : 2 channels
    Sampling rate : 44.1 KHz
    Resolution : 16 bits
    Stream size : 92.6 MiB (7%)
    Alignment : Split accross interleaves
    Interleave, duration : 40 ms (1.00 video frame)
    Interleave, preload duration : 500 ms

    [You must be registered and logged in to see this image.]

    Kopiraj Sve:

    [You must be registered and logged in to see this link.]
    [You must be registered and logged in to see this link.]
    [You must be registered and logged in to see this link.]

      Sada je: ned pro 11, 2016 4:07 am.